请选择 进入手机版 | 继续访问电脑版

[4K-2D] 勇敢传说 Brave 2012 4K UHD [MKV][6.71G][BT]

  [复制链接]

166

主题

174

帖子

7763

积分

管理员

Rank: 26Rank: 26Rank: 26Rank: 26Rank: 26Rank: 26Rank: 26

积分
7763
发表于 2014-10-29 15:40:22 | 显示全部楼层 |阅读模式

马上注册,结交更多好友,体验4K极清世界!

您需要 登录 才可以下载或查看,没有帐号?立即注册

x
20535645b7t004x5xxpzwb.jpg

剧情简介:

  长久以来,那些伟大的战争故事和魔幻的传说一直被人们口口相传,一代又一代,生生不息在这片延绵又神秘的苏格兰高地上。迪士尼∙皮克斯的又一诚意之作,勇敢的梅莉达抗争传统束缚,追求自由从而改变自己命运的瑰丽故事横空出世。梅莉达是佛格国王与艾莉诺皇后的长女,她是一名出色的弓箭手, 也有任性不羁,《勇敢传说》讲述的就是她的冒险故事。为了走出自己的生活之路,梅莉达拒绝承袭对于3个部落首领(丁瓦、麦金、麦葛)来说神圣不可侵犯的古老传统。梅莉达的鲁莽给她的王国带去了混乱和灾难,当她向森林中的女巫寻求帮助的时候,女巫却实施了灾难性的魔咒。

  1. Complete name : Brave.2012.4k UHD.mkv
  2. Format : Matroska
  3. Format version : Version 4 / Version 2
  4. File size : 6.71 GiB
  5. Duration : 1h 33mn
  6. Overall bit rate : 10.3 Mbps
  7. Encoded date : UTC 2014-03-06 19:47:53
  8. Writing application : mkvmerge v6.8.0 (Theme for Great Cities) 32bit built on Mar 2 2014 21:27:07
  9. Writing library : libebml v1.3.0 + libmatroska v1.4.1

  10. Video
  11. ID : 1
  12. Format : HEVC
  13. Format/Info : High Efficiency Video Coding
  14. Codec ID : V_MPEGH/ISO/HEVC
  15. Duration : 1h 33mn
  16. Bit rate : 6 095 Kbps
  17. Width : 3 840 pixels
  18. Height : 1 600 pixels
  19. Display aspect ratio : 2.40:1
  20. Frame rate mode : Constant
  21. Frame rate : 23.976 fps
  22. Bits/(Pixel*Frame) : 0.041
  23. Stream size : 3.99 GiB (59%)
  24. Language : English
  25. Default : Yes
  26. Forced : No

  27. Audio
  28. ID : 2
  29. Format : DTS
  30. Format/Info : Digital Theater Systems
  31. Mode : 16
  32. Format settings, Endianness : Big
  33. Codec ID : A_DTS
  34. Duration : 1h 33mn
  35. Bit rate mode : Constant
  36. Bit rate : 3 968 Kbps
  37. Channel(s) : 6 channels
  38. Channel positions : Front: L C R, Side: L R, LFE
  39. Sampling rate : 48.0 KHz
  40. Bit depth : 16 bits
  41. Compression mode : Lossy
  42. Stream size : 2.60 GiB (39%)
  43. Language : English
  44. Default : Yes
  45. Forced : No
复制代码

勇敢的传说Brave 2012 4K UHD mkv.torrent (17.57 KB, 下载次数: 17916)
回复

使用道具 举报

0

主题

4

帖子

28

积分

敏而好学

Rank: 2

积分
28
发表于 2015-11-26 10:41:34 | 显示全部楼层
怎么下载呀?
回复 支持 1 反对 0

使用道具 举报

0

主题

104

帖子

1万

积分

神乎其技

Rank: 13Rank: 13Rank: 13Rank: 13

积分
16039
发表于 2014-10-30 07:58:58 | 显示全部楼层
谢谢分享,楼主辛苦!
回复 支持 反对

使用道具 举报

0

主题

150

帖子

1万

积分

才华横溢

Rank: 11Rank: 11Rank: 11Rank: 11

积分
10139
发表于 2014-10-30 09:13:48 | 显示全部楼层
英文版?有中文字幕么?
回复 支持 反对

使用道具 举报

0

主题

54

帖子

8569

积分

才华横溢

Rank: 11Rank: 11Rank: 11Rank: 11

积分
8569
发表于 2014-10-30 10:11:30 | 显示全部楼层
谢谢分享,楼主辛苦!
回复 支持 反对

使用道具 举报

0

主题

5

帖子

46

积分

敏而好学

Rank: 2

积分
46
发表于 2014-10-31 23:18:42 | 显示全部楼层
好看吗?想下来看看。
回复 支持 反对

使用道具 举报

0

主题

2

帖子

9

积分

新手上路

Rank: 1

积分
9
发表于 2014-11-1 10:31:11 | 显示全部楼层
希望可以下载!!!!
回复 支持 反对

使用道具 举报

0

主题

47

帖子

709

积分

苦心孤诣

Rank: 7Rank: 7Rank: 7

积分
709
发表于 2014-11-2 09:59:07 | 显示全部楼层
好东西啊要下载啊
回复 支持 反对

使用道具 举报

0

主题

47

帖子

709

积分

苦心孤诣

Rank: 7Rank: 7Rank: 7

积分
709
发表于 2014-11-2 10:00:04 | 显示全部楼层

好东西啊要下载啊
回复 支持 反对

使用道具 举报

0

主题

150

帖子

1万

积分

才华横溢

Rank: 11Rank: 11Rank: 11Rank: 11

积分
10139
发表于 2014-11-2 21:10:47 | 显示全部楼层
有字幕吗?                          
回复 支持 反对

使用道具 举报

0

主题

3

帖子

17

积分

新手上路

Rank: 1

积分
17
发表于 2014-11-4 11:03:55 | 显示全部楼层
可以吗  有中文字幕的吧??谢谢楼主分享
回复 支持 反对

使用道具 举报

您需要登录后才可以回帖 登录 | 立即注册

本版积分规则

关于我们|网站地图|Archiver|手机版|小黑屋| 4K超清中国  

Copyright © 2014-2016 Comsenz Inc.   All Rights Reserved.

Powered by Discuz! X3.1

快速回复 返回顶部 返回列表