请选择 进入手机版 | 继续访问电脑版

[4K-2D] [疯狂原始人][The Croods 2013 4K][5.17G][MKV][BT]

  [复制链接]

166

主题

174

帖子

7763

积分

管理员

Rank: 26Rank: 26Rank: 26Rank: 26Rank: 26Rank: 26Rank: 26

积分
7763
发表于 2014-10-29 15:28:13 | 显示全部楼层 |阅读模式

马上注册,结交更多好友,体验4K极清世界!

您需要 登录 才可以下载或查看,没有帐号?立即注册

x


133649sx8llmbmbsm8n8zx.jpg


简介:


      原始人咕噜一家六口在老爸Grug(尼古拉斯·凯奇 Nicolas Cage配音)的庇护下生活。每天抢夺鸵鸟蛋为食,躲避野兽的追击,每晚听老爸叙述同一个故事,在山洞里过着一成不变的生活。大女儿Eep(艾玛·斯通 EmmaStone 配音)是一个和老爸性格截然相反的充满好奇心的女孩,她不满足一辈子留在这个小山洞里,一心想要追逐山洞外面的新奇世界。

  1. Complete name : The.Croods.2013.4k UHD.mkv
  2. Format : Matroska
  3. Format version : Version 4 / Version 2
  4. File size : 5.17 GiB
  5. Duration : 1h 38mn
  6. Overall bit rate : 7 509 Kbps
  7. Encoded date : UTC 2014-03-06 07:32:27
  8. Writing application : mkvmerge v6.8.0 (Theme for Great Cities) 32bit built on Mar 2 2014 21:27:07
  9. Writing library : libebml v1.3.0 + libmatroska v1.4.1

  10. Video
  11. ID : 1
  12. Format : HEVC
  13. Format/Info : High Efficiency Video Coding
  14. Codec ID : V_MPEGH/ISO/HEVC
  15. Duration : 1h 38mn
  16. Bit rate : 5 851 Kbps
  17. Width : 3 840 pixels
  18. Height : 1 632 pixels
  19. Display aspect ratio : 2.35:1
  20. Frame rate mode : Constant
  21. Frame rate : 23.976 fps
  22. Bits/(Pixel*Frame) : 0.039
  23. Stream size : 4.03 GiB (78%)
  24. Language : English
  25. Default : Yes
  26. Forced : No

  27. Audio
  28. ID : 2
  29. Format : DTS
  30. Format/Info : Digital Theater Systems
  31. Mode : 16
  32. Format settings, Endianness : Big
  33. Codec ID : A_DTS
  34. Duration : 1h 38mn
  35. Bit rate mode : Constant
  36. Bit rate : 1 509 Kbps
  37. Channel(s) : 6 channels
  38. Channel positions : Front: L C R, Side: L R, LFE
  39. Sampling rate : 48.0 KHz
  40. Bit depth : 24 bits
  41. Compression mode : Lossy
  42. Stream size : 1.04 GiB (20%)
  43. Language : English
  44. Default : No
  45. Forced : No
复制代码

疯狂原始人The Croods 2013 4K UHD mkv.torrent (13.5 KB, 下载次数: 27961)
回复

使用道具 举报

0

主题

23

帖子

181

积分

略有小成

Rank: 6Rank: 6

积分
181
发表于 2014-11-3 13:55:17 | 显示全部楼层
谢谢谢谢谢谢了
回复 支持 1 反对 0

使用道具 举报

0

主题

17

帖子

1万

积分

神乎其技

Rank: 13Rank: 13Rank: 13Rank: 13

积分
15264
发表于 2014-10-29 18:00:38 | 显示全部楼层
HEVC好强大的“引擎”感谢楼主
回复 支持 反对

使用道具 举报

0

主题

104

帖子

1万

积分

神乎其技

Rank: 13Rank: 13Rank: 13Rank: 13

积分
16016
发表于 2014-10-30 08:01:28 | 显示全部楼层
谢谢分享,楼主辛苦!
回复 支持 反对

使用道具 举报

0

主题

5

帖子

51

积分

业精于勤

Rank: 3Rank: 3

积分
51
发表于 2014-10-30 22:17:27 | 显示全部楼层
支持一下.
回复

使用道具 举报

0

主题

61

帖子

598

积分

苦心孤诣

Rank: 7Rank: 7Rank: 7

积分
598
发表于 2014-10-31 08:23:09 | 显示全部楼层
谢谢楼主分享快乐!
回复 支持 反对

使用道具 举报

0

主题

10

帖子

98

积分

业精于勤

Rank: 3Rank: 3

积分
98
发表于 2014-10-31 11:14:12 | 显示全部楼层
国产3D我 喜欢 希望出屏明显
回复 支持 反对

使用道具 举报

0

主题

17

帖子

224

积分

略有小成

Rank: 6Rank: 6

积分
224
发表于 2014-10-31 11:31:17 | 显示全部楼层
希望出屏明显
回复 支持 反对

使用道具 举报

0

主题

150

帖子

1万

积分

才华横溢

Rank: 11Rank: 11Rank: 11Rank: 11

积分
10139
发表于 2014-11-2 21:09:06 | 显示全部楼层
有字幕吗?                             
回复 支持 反对

使用道具 举报

0

主题

3

帖子

14

积分

新手上路

Rank: 1

积分
14
发表于 2014-11-3 11:39:09 | 显示全部楼层
希望这个能下的动
回复 支持 反对

使用道具 举报

您需要登录后才可以回帖 登录 | 立即注册

本版积分规则

关于我们|网站地图|Archiver|手机版|小黑屋| 4K超清中国  

Copyright © 2014-2016 Comsenz Inc.   All Rights Reserved.

Powered by Discuz! X3.1

快速回复 返回顶部 返回列表