请选择 进入手机版 | 继续访问电脑版

[4K-2D] [忍者神龟2:破影而出4K TMNT.Out.of.the.Shadows.2016.4K][2160p][47.73G][BT]

  [复制链接]

19

主题

26

帖子

1142

积分

超级版主

Rank: 25Rank: 25Rank: 25Rank: 25Rank: 25Rank: 25Rank: 25

积分
1142
发表于 2016-11-30 08:40:13 | 显示全部楼层 |阅读模式

马上注册,结交更多好友,体验4K极清世界!

您需要 登录 才可以下载或查看,没有帐号?立即注册

x
Teenage Mutant Ninja Turtles Out of the Shadows 4K Blu-ray_front.jpg
◎译  名 忍者神龟2:破影而出/忍者龟:魅影突击(港)/忍者龟:破影而出(台)/忍者神龟2/真人版忍者神龟2
◎片  名 Teenage Mutant Ninja Turtles: Out of the Shadows
◎年  代 2016
◎国  家 美国
◎类  别 喜剧/动作/科幻/奇幻/冒险
◎语  言 英语
◎上映日期 2016-06-03(美国)/2016-07-02(中国大陆)
◎IMDb评分  6.2/10 from 24,463 users
◎豆瓣评分 6.4/10 from 29,832 users
◎BT之家整理 http://www.btbtt.la
◎片  长 113分钟
◎导  演 戴夫·格林 Dave Green
◎主  演 梅根·福克斯 Megan Fox
      斯蒂芬·阿美尔 Stephen Amell
      威尔·阿奈特 Will Arnett
      皮特·普劳泽克 Pete Ploszek
      阿兰·里奇森 Alan Ritchson
      杰瑞米·霍华德 Jeremy Howard
      诺尔·费舍 Noel Fisher
      布莱恩·泰 Brian Tee
      泰勒·派瑞 Tyler Perry
      约翰尼·诺克斯维尔 Johnny Knoxville
      托尼·夏尔赫布 Tony Shalhoub
      弗莱德·阿米森 Fred Armisen
      劳拉·琳妮 Laura Linney
      亚历桑德拉·安布罗休 Alessandra Ambrosio
      威廉·菲德内尔 William Fichtner
      丹尼·伍德伯恩 Danny Woodburn
      茱蒂斯·哈格 Judith Hoag
      加里·安东尼·威廉斯 Gary Anthony Williams
◎简  介
  城市在恢复平静后,大反派重新召集旧部卷土重来,并勾结外星恶势力朗格试图称霸地球,忍者神龟莱昂纳多(皮特·普劳泽克 Pete Ploszek 饰)、拉斐尔(阿兰·里奇森 Alan Ritchson 饰)、多纳泰罗(杰瑞米·霍华德 Jeremy Howard 饰)和米开朗基罗(诺尔·费舍 Noel Fisher 饰)与女记者艾蓓丽尔·奥尼尔(梅根·福克斯 Megan Fox 饰)、韦恩·芬威克(威尔·阿奈特 Will Arnett 饰),及面具义警凯西·琼斯(斯蒂芬·阿梅尔 Stephen Amell 饰)并肩作战打击恶徒。在史莱德(布莱恩·泰 Brian Tee 饰)逃脱拘留后,他与疯狂的科学家巴克斯特斯·托克曼(泰勒·派瑞 Tyler Perry 饰)及其两个笨拙的左膀右臂猪面和牛头联合,发布了一个控制世界的恶魔计划。在神龟们与史莱德及其同伙对抗的同时,他们发现自己正面临着一个更邪恶的力量大反派格朗,神龟们面对的将是宇宙级的强大对手。



Format : Matroska
Format version : Version 2
File size : 47.7 GiB
Duration : 1h 52mn
Overall bit rate : 60.8 Mbps
Encoded date : UTC 2016-10-21T20:18:35Z
Writing application : HandBrake 20160604111422-9206444-master 2016060501
Writing library : Lavf56.1.0

Video
ID : 1
Format : HEVC
Format/Info : High Efficiency Video Coding
Format profile : Main 10@L6.1@Main
Codec ID : V_MPEGH/ISO/HEVC
Duration : 1h 52mn
Bit rate : 58.9 Mbps
Width : 3 840 pixels
Height : 2 160 pixels
Display aspect ratio : 16:9
Frame rate mode : Constant
Frame rate : 23.976 fps
Color space : YUV
Chroma subsampling : 4:2:0
Bit depth : 10 bits
Bits/(Pixel*Frame) : 0.296
Stream size : 46.3 GiB (97%)
Default : Yes
Forced : No
Color range : Limited
Color primaries : BT.709
Transfer characteristics : BT.709
Matrix coefficients : BT.601

Audio
ID : 2
Format : AC-3
Format/Info : Audio Coding 3
Mode extension : CM (complete main)
Format settings, Endianness : Big
Codec ID : A_AC3
Duration : 1h 52mn
Bit rate mode : Constant
Bit rate : 640 Kbps
Channel(s) : 2 channels
Channel positions : Front: L R
Sampling rate : 48.0 KHz
Compression mode : Lossy
Delay relative to video : -5ms
Stream size : 515 MiB (1%)
Title : Stereo
Default : Yes
Forced : No




游客,如果您要查看本帖隐藏内容请回复


回复

使用道具 举报

0

主题

23

帖子

275

积分

略有小成

Rank: 6Rank: 6

积分
275
发表于 2016-11-30 09:19:53 | 显示全部楼层
资源给力,继续努力。
回复 支持 反对

使用道具 举报

0

主题

10

帖子

122

积分

励精图治

Rank: 4

积分
122
发表于 2016-11-30 11:41:46 | 显示全部楼层
楼主超级给力,加油
回复 支持 反对

使用道具 举报

0

主题

3

帖子

27

积分

敏而好学

Rank: 2

积分
27
发表于 2016-11-30 12:46:06 | 显示全部楼层
加油,我们支持你!
回复 支持 反对

使用道具 举报

0

主题

6

帖子

54

积分

业精于勤

Rank: 3Rank: 3

积分
54
发表于 2016-11-30 13:34:17 | 显示全部楼层
谢谢  谢谢
回复 支持 反对

使用道具 举报

0

主题

5

帖子

41

积分

敏而好学

Rank: 2

积分
41
发表于 2016-11-30 13:52:15 | 显示全部楼层
影而出4K TMNT.Out.of.the.Shado
回复 支持 反对

使用道具 举报

0

主题

4

帖子

52

积分

业精于勤

Rank: 3Rank: 3

积分
52
发表于 2016-11-30 13:56:06 | 显示全部楼层
zhichi  zhichi            
回复 支持 反对

使用道具 举报

0

主题

2

帖子

18

积分

新手上路

Rank: 1

积分
18
发表于 2016-11-30 14:25:33 | 显示全部楼层
Dawn of Justice 20
回复 支持 反对

使用道具 举报

0

主题

9

帖子

85

积分

业精于勤

Rank: 3Rank: 3

积分
85
发表于 2016-11-30 14:28:21 | 显示全部楼层
haaaaaaaaaaaaaaaaaaaaaaaaaaaaaaaaaaaaaaaaaaaaaaaaaa
回复 支持 反对

使用道具 举报

0

主题

9

帖子

85

积分

业精于勤

Rank: 3Rank: 3

积分
85
发表于 2016-11-30 14:29:05 | 显示全部楼层
哈啊啊啊啊啊啊啊啊啊啊啊啊啊啊啊啊啊啊啊啊啊啊啊啊啊啊啊啊啊啊啊啊啊啊啊啊啊啊啊啊啊啊啊啊啊啊啊
回复 支持 反对

使用道具 举报

您需要登录后才可以回帖 登录 | 立即注册

本版积分规则

关于我们|网站地图|Archiver|手机版|小黑屋| 4K超清中国  

Copyright © 2014-2016 Comsenz Inc.   All Rights Reserved.

Powered by Discuz! X3.1

快速回复 返回顶部 返回列表