请选择 进入手机版 | 继续访问电脑版

[4K-2D] [八恶人4K The Hateful Eight 2015 4K UHD][2160p][38.06G][BT]

  [复制链接]

19

主题

26

帖子

1134

积分

超级版主

Rank: 25Rank: 25Rank: 25Rank: 25Rank: 25Rank: 25Rank: 25

积分
1134
发表于 2016-11-18 11:52:05 | 显示全部楼层 |阅读模式

马上注册,结交更多好友,体验4K极清世界!

您需要 登录 才可以下载或查看,没有帐号?立即注册

x
123505_front.jpg



147082_front.jpg



◎译  名 八恶人/冰天血地8恶人/可憎八人
◎片  名 The Hateful Eight
◎年  代 2015
◎国  家 美国
◎类  别 剧情/犯罪/西部
◎语  言 英语/法语/西班牙语
◎上映日期 2015-12-07(洛杉矶首映)/2015-12-30(美国)
◎IMDb评分  8.0/10 from 170,588 users
◎IMDb链接  http://www.imdb.com/title/tt3460252/
◎豆瓣评分 8.4/10 from 37,813 users
◎豆瓣链接 http://movie.douban.com/subject/25787888/
◎片  长 168分钟(数字版)/182分钟(胶片版)
◎导  演 昆汀·塔伦蒂诺 Quentin Tarantino
◎主  演 塞缪尔·杰克逊 Samuel L. Jackson
      库尔特·拉塞尔 Kurt Russell
      詹妮弗·杰森·李 Jennifer Jason Leigh
      沃尔顿·戈金斯 Walton Goggins
      德米安·比齐尔 Demián Bichir
      蒂姆·罗斯 Tim Roth
      迈克尔·马德森 Michael Madsen
      布鲁斯·邓恩 Bruce Dern
      詹姆士·帕克斯 James Parks
      查宁·塔图姆 Channing Tatum
      丹娜·格瑞尔 Dana Gourrier
      佐伊·贝尔 Zoe Bell
      李·霍斯利 Lee Horsley
◎简  介
  寒冷的怀俄明州山谷中,一辆马车载着赏金猎人“绞刑者”约翰·鲁斯(库尔特·拉塞尔 Kurt Russell 饰)及其价值一万美元的猎物黛西·多摩格(詹妮弗·杰森·李 Jennifer Jason Leigh 饰)踏雪而行。途中,黑人赏金猎人马奎斯·沃伦少校(塞缪尔·杰克逊 Samuel L. Jackson 饰)和新人警长克里斯·马尼克斯(沃尔顿·戈金斯 Walton Goggins 饰)相继登上马车,红石镇是他们共同的目标。由于风雪太大,马车停在了米妮男装店,然而熟悉的店主人不知去向,却另有四名不速之客百无聊赖地待在店里。约翰时刻担心他人抢走猎物,马奎斯警惕地扫视面前的陌生人们,多嘴多舌的克里斯不时为紧张的气氛中加油添醋,黛西则似乎等待更大的风暴到来。
  仿佛与世隔绝的小店内,即将刮起一场更为猛烈的风暴……
◎获奖情况
  第88届奥斯卡金像奖  (2016)
  最佳女配角(提名) 詹妮弗·杰森·李
  最佳摄影(提名) 罗伯特·理查森
  最佳原创配乐 恩尼奥·莫里康内
  第73届金球奖  (2016)
  电影类 最佳女配角(提名) 詹妮弗·杰森·李
  电影类 最佳编剧(提名) 昆汀·塔伦蒂诺
  电影类 最佳原创配乐
  第69届英国电影学院奖  (2016)
  电影奖 最佳女配角(提名) 詹妮弗·杰森·李
  电影奖 最佳原创剧本(提名)
  电影奖 最佳原创音乐
  第87届美国国家评论协会奖  (2015)
  最佳女配角 詹妮弗·杰森·李
  最佳原创剧本 昆汀·塔伦蒂诺
  年度佳片
  第21届美国评论家选择电影奖  (2016)
  最佳女配角(提名) 詹妮弗·杰森·李
  最佳群像表演(提名)
  最佳原创剧本(提名) 昆汀·塔伦蒂诺
  最佳摄影(提名) 罗伯特·理查森
  最佳配乐
  最佳化妆(提名)
  第28届芝加哥影评人协会奖  (2015)
  最佳原创配乐 恩尼奥·莫里康内
  第6届豆瓣电影鑫像奖  (2016)
  鑫豆单元 最佳影片(外语)(提名)
  鑫豆单元 最佳导演(外语) 昆汀·塔伦蒂诺
  鑫豆单元 最佳女演员(外语)(提名) 詹妮弗·杰森·李
  鑫豆单元 最佳配乐




General
Format                                   : Matroska
File size                                : 38.1 GiB
Duration                                 : 2 h 40 min
Overall bit rate                         : 33.9 Mb/s

Video
Format                                   : AVC
Format/Info                              : Advanced Video Codec
Format profile                           : High@L5.1
Format settings, CABAC                   : Yes
Format settings, ReFrames                : 8 frames
Codec ID                                 : V_MPEG4/ISO/AVC
Duration                                 : 2 h 40 min
Bit rate                                 : 30.3 Mb/s
Width                                    : 3 840 pixels
Height                                   : 1 396 pixels
Display aspect ratio                     : 2.751
Frame rate mode                          : Constant
Frame rate                               : 25.000 FPS
Color space                              : YUV
Chroma subsampling                       : 4:2:0
Bit depth                                : 8 bits
Scan type                                : Progressive
Bits/(Pixel*Frame)                       : 0.226
Stream size                              : 34.1 GiB (90%)
Title                                    : The Hateful Eight (2015)
Language                                 : English
Default                                  : Yes
Forced                                   : No

Audio
Format                                   : DTS
Format/Info                              : Digital Theater Systems
Format profile                           : MA / Core
Mode                                     : 16
Format settings, Endianness              : Big
Codec ID                                 : A_DTS
Duration                                 : 2 h 40 min
Bit rate mode                            : Variable / Constant
Bit rate                                 : 3 550 kb/s / 1 509 kb/s
Channel(s)                               : 6 channels
Channel positions                        : Front: L C R, Side: L R, LFE
Sampling rate                            : 48.0 kHz
Frame rate                               : 93.750 FPS (512 spf)
Bit depth                                : 24 bits
Compression mode                         : Lossless / Lossy
Stream size                              : 3.99 GiB (10%)
Title                                    : DTS-HD MA 5.1 - Blu-ray
Language                                 : English
Default                                  : No
Forced                                   : No




115528415bf779fca4acf7e1967907a1.th.png aa9ac72e1cf127e2476c9fd749b37b6c.th.png



d7fc5fb813672ab92886053d26a00605.th.png f30f35f85d8dd47decd19824200ecfda.th.png



c3c00932db8e52233ff8353c0c8fab2e.th.png 3a0f333d707bf288b5e9feb9283d0199.th.png



5ef5a1e20abb872daa892c9218bd091a.th.png 66d2825ffca518e5ce8730b3cb5e7785.th.png



游客,如果您要查看本帖隐藏内容请回复


回复

使用道具 举报

0

主题

3

帖子

23

积分

敏而好学

Rank: 2

积分
23
发表于 2016-11-18 13:03:19 | 显示全部楼层
回复

使用道具 举报

0

主题

3

帖子

23

积分

敏而好学

Rank: 2

积分
23
发表于 2016-11-18 13:05:05 | 显示全部楼层
感谢分享 感谢分享
回复 支持 反对

使用道具 举报

0

主题

2

帖子

18

积分

新手上路

Rank: 1

积分
18
发表于 2016-11-18 14:05:32 | 显示全部楼层
和会更加 uiu一
回复 支持 反对

使用道具 举报

0

主题

2

帖子

18

积分

新手上路

Rank: 1

积分
18
发表于 2016-11-18 14:21:51 | 显示全部楼层
感谢楼主,楼主万福金安
回复 支持 反对

使用道具 举报

0

主题

1

帖子

13

积分

新手上路

Rank: 1

积分
13
发表于 2016-11-18 14:22:48 | 显示全部楼层
的飞洒发生
回复 支持 反对

使用道具 举报

0

主题

3

帖子

23

积分

敏而好学

Rank: 2

积分
23
发表于 2016-11-18 14:25:44 | 显示全部楼层
十分不错,哈哈哈
回复 支持 反对

使用道具 举报

0

主题

3

帖子

23

积分

敏而好学

Rank: 2

积分
23
发表于 2016-11-18 14:26:27 | 显示全部楼层
十分不错,哈哈哈
回复 支持 反对

使用道具 举报

0

主题

1

帖子

29

积分

敏而好学

Rank: 2

积分
29
发表于 2016-11-18 14:55:11 | 显示全部楼层
感谢分享 感谢分享
回复 支持 反对

使用道具 举报

0

主题

7

帖子

67

积分

业精于勤

Rank: 3Rank: 3

积分
67
发表于 2016-11-18 15:34:24 | 显示全部楼层
方式v是v都是v的方式v实施
回复 支持 反对

使用道具 举报

您需要登录后才可以回帖 登录 | 立即注册

本版积分规则

关于我们|网站地图|Archiver|手机版|小黑屋| 4K超清中国  

Copyright © 2014-2016 Comsenz Inc.   All Rights Reserved.

Powered by Discuz! X3.1

快速回复 返回顶部 返回列表