请选择 进入手机版 | 继续访问电脑版

[4K-2D] [4K电影] TimeScapes时间的风景 画面美得让人窒息H265编码版/1.8G/百度网盘

  [复制链接]

166

主题

174

帖子

7763

积分

管理员

Rank: 26Rank: 26Rank: 26Rank: 26Rank: 26Rank: 26Rank: 26

积分
7763
发表于 2014-8-13 13:02:02 | 显示全部楼层 |阅读模式

马上注册,结交更多好友,体验4K极清世界!

您需要 登录 才可以下载或查看,没有帐号?立即注册

x






全球首部4k电影时光风景 时长约48分钟。大小约2G。
其镜头画面简直美得让人窒息。H.265版本,超小的容量体
来感受H265编码的魅力。喜欢的就体验一下吧。


  1. ormat                         : Matroska
  2. Format version                 : Version 1
  3. File size                      : 1.84 GiB
  4. Duration                       : 48mn 21s
  5. Overall bit rate               : 5 450 Kbps
  6. Writing application            : DivXMKVMux 9.8.11.3853
  7. Writing library                : libDivXMediaFormat 4.0.0.0578

  8. Video
  9. ID                             : 1
  10. Format                         : HEVC
  11. Format/Info                    : High Efficiency Video Coding
  12. Codec ID                       : V_MPEGH/ISO/HEVC
  13. Duration                       : 48mn 21s
  14. Bit rate                       : 4 702 Kbps
  15. Width                          : 3 840 pixels
  16. Height                         : 2 160 pixels
  17. Display aspect ratio           : 16:9
  18. Frame rate mode                : Constant
  19. Frame rate                     : 23.976 fps
  20. Bits/(Pixel*Frame)             : 0.024
  21. Stream size                    : 1.59 GiB (86%)
  22. Language                       : English
  23. Default                        : Yes
  24. Forced                         : No

  25. Audio
  26. ID                             : 2
  27. Format                         : AC-3
  28. Format/Info                    : Audio Coding 3
  29. Mode extension                 : CM (complete main)
  30. Format settings, Endianness    : Big
  31. Codec ID                       : A_AC3
  32. Duration                       : 48mn 21s
  33. Bit rate mode                  : Constant
  34. Bit rate                       : 640 Kbps
  35. Channel(s)                     : 6 channels
  36. Channel positions              : Front: L C R, Side: L R, LFE
  37. Sampling rate                  : 48.0 KHz
  38. Bit depth                      : 16 bits
  39. Compression mode               : Lossy
  40. Stream size                    : 221 MiB (12%)
  41. Language                       : English
  42. Default                        : Yes
  43. Forced                         : No
复制代码

游客,如果您要查看本帖隐藏内容请回复

回复

使用道具 举报

0

主题

3

帖子

23

积分

敏而好学

Rank: 2

积分
23
发表于 2014-8-13 17:26:25 | 显示全部楼层
感觉小萝莉
回复 支持 1 反对 1

使用道具 举报

0

主题

12

帖子

68

积分

业精于勤

Rank: 3Rank: 3

积分
68
发表于 2014-8-15 11:43:36 | 显示全部楼层
是不是真4K我看不像
回复 支持 1 反对 0

使用道具 举报

0

主题

4

帖子

28

积分

敏而好学

Rank: 2

积分
28
发表于 2014-8-13 15:44:06 | 显示全部楼层
谢谢分享。。
回复

使用道具 举报

0

主题

8

帖子

48

积分

敏而好学

Rank: 2

积分
48
发表于 2014-8-13 18:50:00 | 显示全部楼层
等待,画面美、H265编码,效果如何?
回复 支持 反对

使用道具 举报

0

主题

1

帖子

13

积分

新手上路

Rank: 1

积分
13
发表于 2014-8-14 08:54:16 | 显示全部楼层
啊啊啊啊啊啊啊啊
回复 支持 反对

使用道具 举报

0

主题

22

帖子

313

积分

略有小成

Rank: 6Rank: 6

积分
313
发表于 2014-8-14 08:59:38 | 显示全部楼层
h  h hhhh  hhhh   hhhh   hhhhh   
回复 支持 反对

使用道具 举报

0

主题

13

帖子

89

积分

业精于勤

Rank: 3Rank: 3

积分
89
发表于 2014-8-14 10:46:21 | 显示全部楼层
FGJFJSGEYJFGHKGKGL
回复 支持 反对

使用道具 举报

0

主题

3

帖子

31

积分

敏而好学

Rank: 2

积分
31
发表于 2014-8-14 22:12:12 | 显示全部楼层
感谢大大无私分享!!!
回复 支持 反对

使用道具 举报

0

主题

9

帖子

69

积分

业精于勤

Rank: 3Rank: 3

积分
69
发表于 2014-8-15 10:59:34 | 显示全部楼层
支持一下支持一下支持一下
回复 支持 反对

使用道具 举报

您需要登录后才可以回帖 登录 | 立即注册

本版积分规则

关于我们|网站地图|Archiver|手机版|小黑屋| 4K超清中国  

Copyright © 2014-2016 Comsenz Inc.   All Rights Reserved.

Powered by Discuz! X3.1

快速回复 返回顶部 返回列表